» » Eric Carmen - Eric Carmen

Eric Carmen - Eric Carmen Album FLAC

Eric Carmen - Eric Carmen Album FLAC Performer: Eric Carmen
Album: Eric Carmen
Country: US
Released: 1992
Style: Folk Rock, Soft Rock
Label: Rhino Records
Genre: Rock
Catalog #: R2 71141
Size FLAC: 1364 mb.
Size MP3: 2979 mb.
Rating: 4.6/5
Votes: 907
Record Source: CD, Album, Reissue, Remastered




Tracklist


1Great Expectations
2No Hard Feelings
3Last Night
4Sunrise
5All By Myself
6Sunrise (Live Version)
7My Girl
8 CD Bonus Tracks
9All By Myself (Single Version)
10Never Gonna Fall In Love Again
11That's Rock & Roll
12On Broadway
Written-By – Barry Mann, Cynthia Weil, Jerry Leiber, Mike Stoller
13Everything


Versions


CategoryArtistTitle (Format)LabelCategoryCountryYear
AL 4057, 4057Eric Carmen Eric Carmen ‎(LP, Album, Ter)Arista, AristaAL 4057, 4057US1975
8301-4057 HEric Carmen Eric Carmen ‎(8-Trk, Album)Arista8301-4057 HUS1975
1C 062-97 129Eric Carmen Eric Carmen ‎(LP, Album, RP)Arista, EMI Electrola1C 062-97 129GermanyUnknown
8E 064-97 129Eric Carmen Eric Carmen ‎(LP)Arista8E 064-97 129Portugal1975
AQ 4057Eric Carmen Eric Carmen ‎(LP, Album, Quad, CD-)AristaAQ 4057US1975


Credits


  • EngineerJack Sherdel, Joey Barbaria
  • ProducerJimmy Ienner
  • Remastered ByBill Inglot, Ken Perry
  • Written-ByEric Carmen (tracks: all exept track 10)


Barcodes


  • Barcode: 0 8122-71141-2 1
  • Matrix / Runout: 3 R2 71141-2 SRC+01 M1S3


Companies


  • Phonographic Copyright (p) – Arista Records, Inc.
  • Copyright (c) – Arista Records, Inc.
  • Distributed By – Rhino Records
  • Recorded At – O.D.O. Studios
  • Pressed By – Specialty Records Corporation


Album


Eric Carmen is the fifth album by rock and roll musician Eric Carmen. It was also his second self-titled LP after the 1975 album of the same name. The album spent ten weeks on the U. Billboard album charts and reached its peak position of 128 in early March 1985. It contained one Top 40 hit single, I Wanna Hear It from Your Lips, which peaked at 35 on the Billboard Hot 100 in the same month. The song was also a medium adult contemporary hit in both the United States 10 and Canada 17. Eric Carmen - Eric Carmen. Лента с персональными рекомендациями и музыкальными новинками, радио, подборки на любой вкус, удобное управление своей коллекцией. Eric Carmen 1984 Produced by Bob Gaudio1,2,5,7,8,9,10 Don Gehman 2,3 Arranged by Eric Carmen 1. I Wanna Hear It from Your Lips Carmen, Dean Pitchford 0:03 2. I'm Through with Love 3:21 3. American as Apple Pie Carmen, Pitchford 7:23 4. Living Without Your Love Carmen is the debut album by American rock and roll musician and singer-songwriter Eric Carmen. It is also his first of two self-titled albums, the other released in 1984. It peaked at 21 on the Billboard album chart on its release in 1975 see 1975 and generated the 2 pop single All by Myself in the same year. The song reached 1 on the Cashbox and Record World charts. The album also included two follow-up Top 40 hits, Never Gonna Fall in Love Again 11, and Sunrise 34, both of. Eric Carmen: American singer, songwriter, guitarist and keyboardist. He scored numerous hit songs across the 1970s and 1980s, first as a member of the Raspberries, and then with his solo career, including hits such as All by Myself, Never Gonna Fall in Love Again, She Did It, Hungry Eyes, and Make Me Lose Control. Hungry Eyes, All By Myself, Make Me Lose Control и другие песни. Eric Carmen former vocalist of The Raspberries is a poprock musician and singer-songwriter well known for his first single All By Myself released in 1976 and his 1987 comeback single Hungry Eyes written by J. DeNicola and F. Previte for the iconic 'Dirty Dancing' soundtrack. The former, a smooth ballad, was penned by Carmen based on a classical theme by Sergei Rachmaninoff. It was more recently covered by Celine Dion and also used in the opening scene of the movie 'Bridget Jones' Diary'. Besides his successful solo career, Car read more. Eric Carmen. Carmen achieved far greater success with his debut solo album than he ever had with his old group, The Raspberries. In part this was because, freed from the restrictions of leading a rock band, he could indulge his taste in big, lush ballads. That's what he did here, especially on the album's three Top 40 hits, one of which, All by Myself, was a gold-selling 2 hit. Released 1984. Eric Carmen 1984 album Tracklist. I Wanna Hear It From Your Lips Lyrics. I'm Through With Love Lyrics. American As Apple Pie Lyrics. Eric Carmen Фото исполнителя Eric Carmen. United States. Most popular albums by Eric Carmen: Merry Clayton, The John Morris Orchestra. Dirty Dancing - OST, Грязные танцы - Саундтрек. The Hits Album-The Soft Rock Album CD 3. Pop-Rock Soft Rock Ballad. Eric Carmen was and is so gifted. He is a gifted, gifted songwriter. The fact that people are still talking and writing about him, as well as playing and singing his songs, especially All By Myself, is a testament to his talent and


Video


foobar2000 1.3.17 / Dynamic Range Meter 1.1.1
log date: 2019-04-29 20:54:02

--------------------------------------------------------------------------------
Analyzed: Eric Carmen / Eric Carmen [US 1992 CD]
--------------------------------------------------------------------------------

DR Peak RMS Duration Track
--------------------------------------------------------------------------------
DR10 0.00 dB -13.06 dB 5:23 01-Sunrise
DR10 0.00 dB -12.44 dB 3:11 02-That's Rock'n Roll
DR11 -0.14 dB -13.06 dB 3:46 03-Never Gonna Fall In Love Again
DR11 0.00 dB -14.97 dB 7:11 04-All By Myself
DR10 0.00 dB -12.49 dB 3:00 05-Last Night
DR11 -0.12 dB -13.43 dB 3:03 06-My Girl
DR13 -0.29 dB -15.57 dB 3:04 07-Great Expectations
DR10 -5.41 dB -19.02 dB 2:00 08-Everything
DR11 0.00 dB -12.73 dB 5:40 09-No Hard Feelings
DR10 0.00 dB -12.43 dB 3:31 10-On Broadway
DR9 -0.39 dB -13.51 dB 5:00 11-All By Myself (single version)
DR10 0.00 dB -13.43 dB 3:53 12-Sunrise (live)
--------------------------------------------------------------------------------

Number of tracks: 12
Official DR value: DR10

Samplerate: 44100 Hz
Channels: 2
Bits per sample: 16
Bitrate: 994 kbps
Codec: ALAC
================================================================================
Carmen is an American singer, song writer, guitarist and keyboardist. He scored numerous hit songs across the 1970s and 1980s, first as a member of the Raspberries (who had a million-selling single with "Go All the Way"), and then with his solo career, including hits such as "All by Myself," "Never Gonna Fall in Love Again," "She Did It," "Hungry Eyes," and "Make Me Lose Control."