» » Turley Richards - Therfu

Turley Richards - Therfu Album FLAC

Turley Richards - Therfu Album FLAC Performer: Turley Richards
Album: Therfu
Country: Japan
Released: 25 Jul 2018
Label: Atlantic
Genre: Rock
Catalog #: WPCR-18055
Size FLAC: 1199 mb.
Size MP3: 1510 mb.
Rating: 4.1/5
Votes: 542
Record Source: CD, Album, Reissue, Remastered, SHM-CD




Tracklist


1It's All Up To You3:21
2Can't You Hear Them Crying4:21
3You Might Need Somebody3:40
4All Over The World3:33
5I'm Coming Back Home (With A Little Bit Of Luck)3:35
6When I Lose My Way3:48
7There's Something Wrong5:35
8Climb Up The Steeple4:32
9Baby, Please Don't Go4:55
10Stand By Me3:45


Versions


CategoryArtistTitle (Format)LabelCategoryCountryYear
SD 19260Turley Richards Therfu ‎(LP, Album, Spe)AtlanticSD 19260US1979
SD 19260Turley Richards Therfu ‎(LP, Album)AtlanticSD 19260Australia1979
ATL 50687Turley Richards Therfu ‎(LP, Album)AtlanticATL 50687Netherlands1979
SD 19260Turley Richards Therfu ‎(LP, Album, Mon)AtlanticSD 19260US1979
P-10778A, SD 19260Turley Richards Therfu ‎(LP, Album)Atlantic, AtlanticP-10778A, SD 19260Japan1979


Credits


  • Executive-ProducerMick Fleetwood
  • Mastered ByGlenn Meadows
  • ProducerTurley Richards


Barcodes


  • Barcode (Text): 4 943674-284580


Companies


  • Manufactured By – Warner Music Japan Inc.


Album


Album 1980 10 Songs. Turley Richards. Rock free to Turley Richards Therfu You Might Need Somebody, All Over The World and more. 10 tracks 41:05. Magical Moment. 2015 сингл. Back to My Roots. West Virginia Superstar. Richards was born in Charleston, West Virginia, United States. He was blinded in the left eye at the age of four in an archery accident and lost sight in the right eye as well at the age of twenty-nine. He began playing in a group called The Five Pearls while still a teen in the 1950s. His first appearance on record was in 1959, a single titled All About Ann, released on label Fraternity Records. Makin' Love. Discover all of this album's music connections, watch videos, listen to music, discuss and : Vinyl, LP, Album, Specialty press. Paese: US. Uscita: 1979. Genere: Rock, Funk, Soul. Therfu LP, Album, Mon. SD 19260. Vendi questa versione. Album : Therfu 1979. I'm Coming Back Home To Stay , Buck Owen' Richards. Therfu, 2013. You Might Need Somebody, 03:36. All Over the World Album Verison, 03:39. When I Lose My Way, 03:50. Can't You Hear Them Crying, 04:22


Video


In 2018 the Japanese are still compressing & ruining CD reissues. Why???

foobar2000 1.4.4 / Dynamic Range Meter 1.1.1
log date: 2019-08-30 23:01:24

--------------------------------------------------------------------------------
Analyzed: Turley Richards / Therfu [JP 1979/2018 CD]
--------------------------------------------------------------------------------

DR Peak RMS Duration Track
--------------------------------------------------------------------------------
DR8 -0.39 dB -10.58 dB 3:42 01-You Might Need Somebody
DR7 -0.35 dB -9.16 dB 3:39 02-All over the World
DR7 -0.27 dB -9.81 dB 3:51 03-When I Lose My Way
DR8 -0.39 dB -10.63 dB 4:58 04-Baby Please Don't Go
DR8 -0.31 dB -11.50 dB 4:35 05-Climb up the Steeple
DR8 -0.34 dB -10.13 dB 3:49 06-Stand by Me
DR7 -0.33 dB -10.27 dB 3:35 07-I'm Comin' Back Home (With a Bit of Luck)
DR7 -0.37 dB -10.04 dB 4:23 08-Can't You Hear Them Crying?
DR9 -0.37 dB -12.15 dB 3:26 09-It's All up to You
DR8 -0.40 dB -12.29 dB 5:39 10-There's Something Wrong
--------------------------------------------------------------------------------

Number of tracks: 10
Official DR value: DR8

Samplerate: 44100 Hz
Channels: 2
Bits per sample: 16
Bitrate: 956 kbps
Codec: ALAC
================================================================================